Game of Thrones S06 Season 6 720p 10bit WEB-DL 5.1 x265 HEVC-INC[UTR]

seeders: 10
leechers: 8
updated:
Added by theincognito11.04K in TV
Torrent verified. Downloaded 317 times.

DownloadFast Safe Anonymous
movies, software, shows...
  • View all Game of Thrones episodes
  • Season: Full 6th season
  • IMDb link: 0944947
  • TVmaze link: Game of Thrones
  • Original run: 05 December 2010 — Present
  • Summary:

    Seven noble families fight for control of the mythical land of Westeros. Friction between the houses leads to full-scale war. All while a very ancient evil awakens in the farthest north. Amidst the war, a neglected military order of misfits, the Night's Watch, is all that stands between the realms of men and the icy horrors beyond.

    Written by CGUploader2044
Available in versions: 1080p720p480pHDTVWEBRipx264x265
Game of Thrones S06 Season 6 720p 10bit WEB-DL 5.1 x265 HEVC-INC[UTR] (Size: 4.29 GB)
  .____padding_file
  01.The.Red.Woman.720p-INC.mkv 535.09 MB
  02.Home.720p-INC.mkv 354.59 MB
  03.Oathbreaker.720p-INC.mkv 330.46 MB
  04.Book.of.the.Stranger.720p-INC.mkv 425.55 MB
  05.The.Door.720p-INC.mkv 456.74 MB
  06.Blood.of.My.Blood.720p-INC.mkv 404.5 MB
  07.The.Broken.Man.720p-INC.mkv 480.77 MB
  08.No.One.720p-INC.mkv 432.08 MB
  09.Battle.of.the.Bastards.720p-INC.mkv 536.94 MB
  10.The.Winds.of.Winter.720p-INC.mkv 418.35 MB
  g0t06_meta.sqlite 21 KB
  g0t06_meta.xml 618 bytes

Description

image



Format : Matroska
Format version : Version 4 / Version 2
File size : 535 MiB
Duration : 50 min
Overall bit rate : 1 496 kb/s
Encoded date : UTC 2016-07-07 06:07:11
Writing application : mkvmerge v9.2.0 ('Photograph') 64bit
Writing library : libebml v1.3.3 + libmatroska v1.4.4

Video
ID : 1
Format : HEVC
Format/Info : High Efficiency Video Coding
Format profile : Main [email protected]@Main
Codec ID : V_MPEGH/ISO/HEVC
Duration : 50 min
Bit rate : 1 334 kb/s
Width : 1 280 pixels
Height : 718 pixels
Display aspect ratio : 16:9
Frame rate mode : Constant
Frame rate : 23.976 (24000/1001) FPS
Color space : YUV
Chroma subsampling : 4:2:0
Bit depth : 10 bits
Bits/(Pixel*Frame) : 0.061
Stream size : 477 MiB (89%)
Writing library : x265 1.9+226-6561d8676581:[Windows][MSVC 1900][64 bit] 10bit
Encoding settings : wpp / ctu=64 / min-cu-size=8 / max-tu-size=32 / tu-intra-depth=1 / tu-inter-depth=1 / me=3 / subme=3 / merange=57 / rect / no-amp / max-merge=3 / temporal-mvp / no-early-skip / rskip / rdpenalty=0 / no-tskip / no-tskip-fast / strong-intra-smoothing / no-lossless / no-cu-lossless / no-constrained-intra / no-fast-intra / open-gop / no-temporal-layers / interlace=0 / keyint=250 / min-keyint=23 / scenecut=40 / rc-lookahead=25 / lookahead-slices=4 / bframes=4 / bframe-bias=0 / b-adapt=2 / ref=4 / limit-refs=3 / limit-modes / weightp / no-weightb / aq-mode=3 / qg-size=32 / aq-strength=1.00 / cbqpoffs=0 / crqpoffs=0 / rd=4 / psy-rd=2.00 / rdoq-level=2 / psy-rdoq=1.00 / no-rd-refine / signhide / deblock=0:0 / sao / no-sao-non-deblock / b-pyramid / cutree / no-intra-refresh / rc=crf / crf=23.0 / qcomp=0.60 / qpmin=0 / qpmax=51 / qpstep=4 / ipratio=1.40 / pbratio=1.30
Default : Yes
Forced : No

Audio
ID : 2
Format : AAC
Format/Info : Advanced Audio Codec
Format profile : LC
Codec ID : A_AAC
Duration : 50 min
Bit rate : 160 kb/s
Channel(s) : 6 channels
Channel positions : Front: L C R, Side: L R, LFE
Sampling rate : 48.0 kHz
Frame rate : 46.875 FPS (1024 spf)
Compression mode : Lossy
Stream size : 57.2 MiB (11%)
Language : English
Default : Yes
Forced : No

Text
ID : 3
Format : UTF-8
Codec ID : S_TEXT/UTF8
Codec ID/Info : UTF-8 Plain Text
Duration : 45 min
Bit rate : 36 b/s
Count of elements : 383
Stream size : 12.2 KiB (0%)
Default : Yes
Forced : No

Related Torrents

torrent name size files age seed leech

Sharing Widget


Download torrent
4.29 GB
seeders:7
leechers:5
Game of Thrones S06 Season 6 720p 10bit WEB-DL 5.1 x265 HEVC-INC[UTR]



To share this torrent use the code below and insert it into comments, status messages, forum posts or your signature.

Torrent: Game of Thrones S06 Season 6...EB-DL 5.1 x265 HEVC-INC[UTR]

Trackers

tracker name
udp://tracker.openbittorrent.com:80/announce
udp://tracker.coppersurfer.tk:6969/announce
udp://p4p.arenabg.com:1337/announce
http://bt2.archive.org:6969/announce
http://bt1.archive.org:6969/announce
udp://tracker.opentrackr.org:1337/announce
µTorrent compatible trackers list

Locations

name
KickassTorrents
Torrent hash: 7DF74DC26D8A4D3DE71187A921FD8F39CC29D680

All Comments

audio
0/10
video
0/10
please, leave only comments related to that torrent
Sign In


User Opinions

Bilbakalim18.32K, MD.EK13.23K, TonyKong2572, Chemba689, Desiswag319
Report a bug Open chat
Sitemap