Bering Sea Gold S06E10 720p HDTV x264-BAJSKORV[rartv]

seeders: 6
leechers: 2
updated:
Added by z0n3212.59M in TV
Torrent verified. Downloaded 4,229 times.

DownloadFast Safe Anonymous
movies, software, shows...
  • View all Bering Sea Gold episodes
  • Episode title: Jackpot
  • Episode: S06E10
  • Air date: 01 June 2016
  • IMDb link: 2182427
  • TVmaze link: Bering Sea Gold
  • Original run: 27 January 2012 — Present
  • Summary:

    Nome, Alaska. Every summer, as the glacial ice melts around this frozen and isolated port, a handful of fortune seekers hunt for gold in the most unlikely of places: the bottom of the Bering Sea. These treasure hunters put it all on the line to scour the sea floor for sparkling, precious metal. With gold's price at an all-time high, some will go home rich... and some will just go home

    Written by ROBBREDD26.49K
Available in versions: 1080p720p480pHDTVWEBRipx264
Bering Sea Gold S06E10 720p HDTV x264-BAJSKORV[rartv] (Size: 909.69 MB)
  rarbg.com.txt 34 bytes
  bering.sea.gold.s06e10.720p.hdtv.x264-bajskorv.mkv 909.69 MB
  bering.sea.gold.s06e10.720p.hdtv.x264-bajskorv.nfo 82 bytes

Description


http://rarbg.to
Bering.Sea.Gold.S06E10.720p.HDTV.x264-BAJSKORV[rartv]

image
Screens :

image
Mediainfo :

Video
ID : 1
Format : AVC
Format/Info : Advanced Video Codec
Format profile : [email protected]
Format settings, CABAC : Yes
Format settings, ReFrames : 5 frames
Codec ID : V_MPEG4/ISO/AVC
Duration : 42mn 30s
Bit rate : 2 605 Kbps
Width : 1 280 pixels
Height : 720 pixels
Display aspect ratio : 16:9
Frame rate mode : Constant
Frame rate : 29.970 (30000/1001) fps
Color space : YUV
Chroma subsampling : 4:2:0
Bit depth : 8 bits
Scan type : Progressive
Bits/(Pixel*Frame) : 0.094
Stream size : 792 MiB (87%)
Writing library : x264 core 148 r2665 a01e339
Encoding settings : cabac=1 / ref=5 / deblock=1:0:0 / analyse=0x3:0x113 / me=umh / subme=8 / psy=1 / psy_rd=1.00:0.00 / mixed_ref=1 / me_range=16 / chroma_me=1 / trellis=1 / 8x8dct=1 / cqm=0 / deadzone=21,11 / fast_pskip=1 / chroma_qp_offset=-2 / threads=18 / lookahead_threads=4 / sliced_threads=0 / nr=0 / decimate=1 / interlaced=0 / bluray_compat=0 / constrained_intra=0 / bframes=5 / b_pyramid=2 / b_adapt=2 / b_bias=0 / direct=3 / weightb=1 / open_gop=0 / weightp=2 / keyint=250 / keyint_min=25 / scenecut=40 / intra_refresh=0 / rc_lookahead=50 / rc=crf / mbtree=1 / crf=20.0 / qcomp=0.60 / qpmin=0 / qpmax=69 / qpstep=4 / ip_ratio=1.40 / aq=1:1.00
Default : No
Forced : No

Audio
ID : 2
Format : AC-3
Format/Info : Audio Coding 3
Mode extension : CM (complete main)
Format settings, Endianness : Big
Codec ID : A_AC3
Duration : 42mn 31s
Bit rate mode : Constant
Bit rate : 384 Kbps
Channel(s) : 6 channels
Channel positions : Front: L C R, Side: L R, LFE
Sampling rate : 48.0 KHz
Frame rate : 31.250 fps (1536 spf)
Compression mode : Lossy
Delay relative to video : -67ms
Stream size : 117 MiB (13%)
Default : Yes
Forced : No

Related Torrents

torrent name size files age seed leech

Sharing Widget


Download torrent
909.69 MB
seeders:6
leechers:2
Bering Sea Gold S06E10 720p HDTV x264-BAJSKORV[rartv]



To share this torrent use the code below and insert it into comments, status messages, forum posts or your signature.

Torrent: Bering Sea Gold S06E10 720p HDTV x264-BAJSKORV[rartv]

Trackers

tracker name
udp://tracker.openbittorrent.com:80/announce
http://retracker.krs-ix.ru/announce
udp://tracker.coppersurfer.tk:6969/announce
http://tracker.aletorrenty.pl:2710/announce
udp://glotorrents.pw:6969/announce
http://mgtracker.org:2710/announce
http://tracker1.wasabii.com.tw:6969/announce
http://tracker2.wasabii.com.tw:6969/announce
udp://tracker.opentrackr.org:1337/announce
http://tracker.baravik.org:6970/announce
µTorrent compatible trackers list

Locations

name
KickassTorrents
Torrent hash: AA83C80003F039C68B6954D83AA25968B4ECD774

All Comments

audio
9/10
video
9/10
please, leave only comments related to that torrent
Sign In

audio: 9video: 10
thanks z0n321
Unable to load "[getactiveketo.com]bering.sea.gold.s06e10.xvid.afg.torrent": torrent is not valid bencoding!
audio: 9video: 9
Thanks!
audio: 9video: 9
thanks
audio: 9video: 9
thanks thumb_up

User Opinions

Deep61107.14K, gmpilon6745, jc0556711, pppawn6213, talitha_talj4112, Obey2568, ienvyno11872, ButchP1689, skrillexxxx848, pharmapharmer374 ... And 44 more
PuddinPie1999242
Report a bug Open chat
Sitemap